[ Сегодня идет свободное скачивание без начисления Download ]


Статистика раздачи
Нет
 
   
 
 
 
 
Нация Z / Z Nation [4 сезон: серии 1-13 из 13] (2017) | WEB-DL 720р
Название: Нация Z
Оригинальное название: Z Nation
Год выпуска: 2017
Жанр: Хоррор, экшен, зомби, апокалипсис
Выпущено: США, The Asylum, Go2 Digital Media
Режиссер: Джон Хайамс, Абрам Кокс, Рэйчел Голденберг
В ролях: Гарольд Перрино, Том Эверетт Скотт, Ди Джей Куаллс, Майкл Уэлш, Келлита Смит, Анастасия Баранова, Расселл Ходжкинсон, Кит Аллан
Описание:
Спустя три года после того, как вирус зомби распространился и выпотрошил всю страну, команда героев должна перевезти единственного известного оставшегося в живых от действия чумы из Нью-Йорка в Калифорнию, где последняя функционирующая вирусная лаборатория ждет его крови. Хотя антитела, которые он несет, являются последней надеждой мира получить вакцину, он скрывает мрачную тайну, которая угрожает им всем. Выживание человечества под угрозой, когда разношерстная группа предпринимает путешествие длиной в пять тысяч километров по опустошенной, постапокалиптической Америке.

Качество: WEB-DL 720р (чистый видеоряд)
Видео: 1280x720, 23.976 fps, MPEG-4 AVC ~4000 kbps
Аудио #1: Русский (AC3, 2 ch, 384 Кбит/с)
Перевод: Профессиональный (многоголосый закадровый) (LostFilm)
Аудио #2: Английский (EAС3, 6 ch, 640 Кбит/с)
Субтитры: Английские
Продолжительность: 13 х ~00:42:00
Реклама: Полностью отсутствует

MediaInfo:

Общее
Уникальный идентификатор : 229102443203049441736313879510477292579 (0xAC5B868BBC6DAB408BC6EB8EBE65C423)
Полное имя : D:\Z Nation (Season 04) AMZN WEBDL 720p GeneralFilm\Z.Nation.S04E01.AMZN.WEBDL.720p.GeneralFilm.mkv
Формат : Matroska
Версия формата : Version 4 / Version 2
Размер файла : 1,33 Гбайт
Продолжительность : 43 м. 9 с.
Режим общего битрейта : Переменный
Общий поток : 4417 Кбит/сек
Дата кодирования : UTC 2017-10-02 02:57:24
Программа кодирования : mkvmerge v7.7.0 ('Six Voices') 64bit built on Feb 28 2015 23:39:33
Библиотека кодирования : libebml v1.3.1 + libmatroska v1.4.2
Видео
Идентификатор : 1
Формат : AVC
Формат/Информация : Advanced Video Codec
Профиль формата : [email protected]
Настройки формата : CABAC / 5 Ref Frames
Параметр CABAC формата : Да
Параметр RefFrames формата : 5 кадров
Идентификатор кодека : V_MPEG4/ISO/AVC
Продолжительность : 43 м. 9 с.
Вид битрейта : Переменный
Битрейт : 3305 Кбит/сек
Максимальный битрейт : 4500 Кбит/сек
Ширина : 1280 пикселей
Высота : 720 пикселей
Соотношение сторон : 16:9
Режим частоты кадров : Постоянный
Частота кадров : 23,976 (24000/1001) кадра/сек
Цветовое пространство : YUV
Субдискретизация насыщенности : 4:2:0
Битовая глубина : 8 бит
Тип развёртки : Прогрессивная
Бит/(Пиксели*Кадры) : 0.150
Размер потока : 1020 Мбайт (75%)
Default : Да
Forced : Нет
Цветовой диапазон : Limited
Основные цвета : BT.709
Характеристики трансфера : BT.709
Коэффициенты матрицы : BT.709
Аудио #1
Идентификатор : 2
Формат : AC-3
Формат/Информация : Audio Coding 3
Параметр Endianness формата : Big
Идентификатор кодека : A_AC3
Продолжительность : 43 м. 9 с.
Вид битрейта : Постоянный
Битрейт : 384 Кбит/сек
Каналы : 2 канала
Расположение каналов : Front: L R
Частота : 48,0 КГц
Частота кадров : 31,250 кадров/сек (1536 SPF)
Битовая глубина : 16 бит
Метод сжатия : С потерями
Размер потока : 119 Мбайт (9%)
Язык : Russian
ServiceKind/String : Complete Main
Default : Да
Forced : Нет
Аудио #2
Идентификатор : 3
Формат : E-AC-3
Формат/Информация : Enhanced Audio Coding 3
Параметр Endianness формата : Big
Идентификатор кодека : A_EAC3
Продолжительность : 43 м. 9 с.
Вид битрейта : Постоянный
Битрейт : 640 Кбит/сек
Каналы : 6 каналов
Расположение каналов : Front: L C R, Side: L R, LFE
Частота : 48,0 КГц
Частота кадров : 187,500 кадров/сек (256 SPF)
Метод сжатия : С потерями
Размер потока : 198 Мбайт (14%)
Язык : English
ServiceKind/String : Complete Main
Default : Нет
Forced : Нет
Текст
Идентификатор : 4
Формат : UTF-8
Идентификатор кодека : S_TEXT/UTF8
Идентификатор кодека/Информация : UTF-8 Plain Text
Язык : English
Default : Нет
Forced : Нет

Скриншоты

Внимание! Раздача ведётся путём добавления новых серий!

Внимание! Раздача ведётся путём добавления новых серий; при каждом добавлении создfётся новый торрент. Чтобы начать докачку новой серии, пользователям необходимо сделать следующее: (1) остановить скачивание, (2) удалить старый торрент у себя из клиента (старые серии удалять не надо), (3) скачать новый торрент и запустить его у себя в клиенте вместо старого, при этом указать клиенту путь в старую папку куда и должно происходить скачивание новых серий.
Ваш клиент при этом должен произвести хеширование (проверку) старой папки (если не производит сам - помогите ему сделать это), и будет докачивать только те серии которых у вас ещё нет. Старые серии при этом не удаляются, а продолжают раздаваться!
Eсли вы уже удалили старые серии, то предотвратить повторную закачку старых серий можно, отжав галочку в соответсвующих местах при запуске нового торрента.

[Цитировать]



Показать сообщения:    

Текущее время: 25-Авг 10:11

Часовой пояс: UTC + 6


Вы не можете начинать темы
Вы не можете отвечать на сообщения
Вы не можете редактировать свои сообщения
Вы не можете удалять свои сообщения
Вы не можете голосовать в опросах
Вы не можете прикреплять файлы к сообщениям
Вы не можете скачивать файлы

!ВНИМАНИЕ!
Сайт не предоставляет электронные версии произведений, а занимается лишь коллекционированием и каталогизацией ссылок, присылаемых и публикуемых на форуме нашими читателями. Если вы являетесь правообладателем какого-либо представленного материала и не желаете, чтобы ссылка на него находилась в нашем каталоге, свяжитесь с нами, и мы незамедлительно удалим ее. Файлы для обмена на трекере предоставлены пользователями сайта, и администрация не несет ответственности за их содержание. Просьба не заливать файлы, защищенные авторскими правами, а также файлы нелегального содержания!