[ Сегодня идет свободное скачивание без начисления Download ]


Статистика раздачи
Качаю: [ 2 ]
Скачал: [ 30 ]
 
   
 
 
 
 
Сфинксы северных ворот [1-4 из 4] (2018) WEB-DLRip Название: Сфинксы северных ворот
Год выпуска: 2018
Жанр: Детектив, приключения, экранизация
Выпущено: Россия, Кинокомпания "Марс Медиа Энтертейнмент ", Компания Парк Синема
Режиссер: Олег Штром
В ролях: Елена Великанова, Дмитрий Бедерин, Любовь Германова, Валерий Сторожик, Максим Щёголев, Сергей Подольный, Евгений Данчевский, Александр Никитин
О фильме: Судьба сталкивает Грекова с давним соперником – Павлом Роговым, которого он много лет назад засадил за решётку. К тому же когда-то любимая девушка Рогова стала женой Грекова… Выйдя из тюрьмы, Павел вновь встречается с Верой. Он утверждает, что не совершал преступления, за которое отсидел срок, и подозревает, что Греков подтасовал материалы дела. И вот теперь Павел убит, все улики указывают на Грекова, а сам он не может вспомнить ничего о событиях того рокового вечера… Саше предстоит узнать много нового о прошлом своего любимого мужчины, чтобы снять с него страшные обвинения. И ещё кровавая семейная тайна тесно переплетена с судьбой шедевра Ван Дейка.
Файл:
Качество: WEB-DLRip
Видео: XviD, 1500 Кбит/с, 720x400
Аудио: AC3, 2 ch, 192 Кбит/с
Продолжительность: 4 х ~ 00:45:00
Язык: Русский
Доп. ин.-ция

MediaInfo:

Общее
Полное имя : D:\моё видио\Сфинксы северных ворот.(2018).WEB-DLRip.Files-x\1.Сфинксы северных ворот.(2018).WEB-DLRip.Files-x.avi
Формат : AVI
Формат/Информация : Audio Video Interleave
Размер файла : 552 Мбайт
Продолжительность : 45 м.
Общий поток : 1701 Кбит/сек
Программа кодирования : VirtualDubMod 1.5.10.3 | www.virtualdub-fr.org || (build 2550/release)
Библиотека кодирования : VirtualDubMod build 2550/release
Видео
Идентификатор : 0
Формат : MPEG-4 Visual
Профиль формата : Advanced [email protected]
Параметр BVOP формата : 1
Параметр QPel формата : Нет
Параметр GMC формата : Без точки перехода
Параметр матрицы формата : Выборочная
Идентификатор кодека : XVID
Идентификатор кодека/Подсказка : XviD
Продолжительность : 45 м.
Битрейт : 1499 Кбит/сек
Ширина : 720 пикселей
Высота : 400 пикселей
Соотношение сторон : 16:9
Частота кадров : 25,000 кадров/сек
Цветовое пространство : YUV
Субдискретизация насыщенности : 4:2:0
Битовая глубина : 8 бит
Тип развёртки : Прогрессивная
Метод сжатия : С потерями
Бит/(Пиксели*Кадры) : 0.208
Размер потока : 487 Мбайт (88%)
Библиотека кодирования : XviD 73
Аудио
Идентификатор : 1
Формат : AC-3
Формат/Информация : Audio Coding 3
Расширение режима : CM (complete main)
Параметр Endianness формата : Big
Идентификатор кодека : 2000
Продолжительность : 45 м.
Вид битрейта : Постоянный
Битрейт : 192 Кбит/сек
Каналы : 2 канала
Расположение каналов : Front: L R
Частота : 48,0 КГц
Битовая глубина : 16 бит
Метод сжатия : С потерями
Размер потока : 62,4 Мбайт (11%)
Выравнивание : Разделение по промежуткам
Продолжительность промежутка : 40 мс. (1,00 видеокадр)
Время предзагрузки промежутка : 500 мс.

Скриншоты

Добавлены 1-4 серии.
Фильм залит полностью.

[Цитировать]



Показать сообщения:    

Текущее время: 08-Июл 19:42

Часовой пояс: UTC + 6


Вы не можете начинать темы
Вы не можете отвечать на сообщения
Вы не можете редактировать свои сообщения
Вы не можете удалять свои сообщения
Вы не можете голосовать в опросах
Вы не можете прикреплять файлы к сообщениям
Вы не можете скачивать файлы

!ВНИМАНИЕ!
Сайт не предоставляет электронные версии произведений, а занимается лишь коллекционированием и каталогизацией ссылок, присылаемых и публикуемых на форуме нашими читателями. Если вы являетесь правообладателем какого-либо представленного материала и не желаете, чтобы ссылка на него находилась в нашем каталоге, свяжитесь с нами, и мы незамедлительно удалим ее. Файлы для обмена на трекере предоставлены пользователями сайта, и администрация не несет ответственности за их содержание. Просьба не заливать файлы, защищенные авторскими правами, а также файлы нелегального содержания!