[ Сегодня идет свободное скачивание без начисления Download ]


Статистика раздачи
Нет
 
   
 
 
 
 
Очарован тобой / Dillagi (1999) HDTV 1080p | P Название: Очарован тобой
Оригинальное название: Dillagi
Год выпуска: 1999
Жанр: Драма, мелодрама, комедия, семейный
Выпущено: Индия, Vijeta Films
Режиссер: Санни Деол
В ролях: Санни Деол, Бобби Деол, Урмила Матондкар, Дара Сингх, Зохра Сегал, Кулбхушан Харбанда, Рима Лагу, Нариндер Каур, Прити Зинта, Парвин Дабас
О фильме: У преуспевающего владельца пятизвездочного отеля два сына, совершенно не похожих друг на друга. Старший Ранвир — немногословный трудоголик и безнадежный романтик, а младший Раджвир — учится в колледже и беззаботно прожигает жизнь. Так случилось, что оба брата влюблены в одну и ту же девушку Шалини, но никто из них не подозревает о чувствах другого…

Качество: HDTV (1080p)
Видео: MPEG-4 AVC, ~ 10 Мбит/с, 1920x1080
Аудио: Русский, хинди (АС3, 2 ch, 192 Кбит/с)
Размер: 12.9 ГБ
Продолжительность: 03:01:52
Перевод: Профессиональный многоголосый

MI

General
Unique ID : 174887636084773459797902407521827789211 (0x8392222E9EE9E5A8A76BD9F2B563999B)
Complete name : D:торрентготовыеOcharovan.toboy.1999.HDTV1080p.Generalfilm.mkv
Format : Matroska
Format version : Version 4 / Version 2
File size : 12.9 GiB
Duration : 3h 1mn
Overall bit rate mode : Constant
Overall bit rate : 10.2 Mbps
Encoded date : UTC 2017-12-15 15:28:17
Writing application : mkvmerge v6.8.0 ('Theme for Great Cities') 64bit built on Mar 2 2014 21:34:26
Writing library : libebml v1.3.0 + libmatroska v1.4.1
Video
ID : 1
Format : AVC
Format/Info : Advanced Video Codec
Format profile : [email protected]
Format settings, CABAC : Yes
Format settings, ReFrames : 3 frames
Codec ID : V_MPEG4/ISO/AVC
Duration : 3h 1mn
Bit rate mode : Constant
Bit rate : 10 000 Kbps
Width : 1 920 pixels
Height : 1 080 pixels
Display aspect ratio : 16:9
Frame rate mode : Constant
Frame rate : 25.000 fps
Standard : PAL
Color space : YUV
Chroma subsampling : 4:2:0
Bit depth : 8 bits
Scan type : Progressive
Bits/(Pixel*Frame) : 0.193
Stream size : 12.4 GiB (96%)
Default : Yes
Forced : No
Color range : Limited
Color primaries : BT.709
Transfer characteristics : BT.709
Matrix coefficients : BT.709
Audio
ID : 2
Format : AC-3
Format/Info : Audio Coding 3
Mode extension : CM (complete main)
Format settings, Endianness : Big
Codec ID : A_AC3
Duration : 3h 1mn
Bit rate mode : Constant
Bit rate : 192 Kbps
Channel(s) : 2 channels
Channel positions : Front: L R
Sampling rate : 48.0 KHz
Frame rate : 31.250 fps (1536 spf)
Compression mode : Lossy
Stream size : 250 MiB (2%)
Default : Yes
Forced : No

Скриншоты


[Цитировать]



Показать сообщения:    

Текущее время: 25-Авг 10:09

Часовой пояс: UTC + 6


Вы не можете начинать темы
Вы не можете отвечать на сообщения
Вы не можете редактировать свои сообщения
Вы не можете удалять свои сообщения
Вы не можете голосовать в опросах
Вы не можете прикреплять файлы к сообщениям
Вы не можете скачивать файлы

!ВНИМАНИЕ!
Сайт не предоставляет электронные версии произведений, а занимается лишь коллекционированием и каталогизацией ссылок, присылаемых и публикуемых на форуме нашими читателями. Если вы являетесь правообладателем какого-либо представленного материала и не желаете, чтобы ссылка на него находилась в нашем каталоге, свяжитесь с нами, и мы незамедлительно удалим ее. Файлы для обмена на трекере предоставлены пользователями сайта, и администрация не несет ответственности за их содержание. Просьба не заливать файлы, защищенные авторскими правами, а также файлы нелегального содержания!