[ Сегодня идет свободное скачивание без начисления Download ]


Статистика раздачи
Нет
 
   
 
 
 
 
Воин племени шайеннов / Сheyenne Warrior (1994) DVDRip Информация о фильме
Название: Воин племени шайеннов
Оригинальное название: Сheyenne Warrior
Год выхода: 1994
Жанр: Вестерн, Боевик
Режиссер: Марк Гриффитс
В ролях: Келли Престон, Пэйто Хоффманн, Бо Хопкинс, Рик Дин, Клинт Хауард, Чарлз Пауэлл, Дэн Кларк, Ник Уинтерхоук, Джозеф Вулвзкилл, Дэн Хэггерти.
О фильме:
У Ребекки Карвер бандиты убили мужа. И тогда Ребекка нашла себе индейца из племени шайенов. Индейца звали Хоук — то есть Ястреб. Сначала она его от смерти спасла, а потом они полюбили друг друга. Хотя в условиях Дикого Запада конца позапрошлого века такая страсть была заранее обречена…
Страна: США
Студия: Libra Pictures
Продолжительность: 01:26:25
Перевод: Авторский (одноголосый закадровый) [С. Кузнецов]
Файл
Кодек: DivX
Качество: DVDRip
Видео: DivX, 640x480, 2068 kbps, 23,976 fps
Звук: Русский: AC3, 192 kbps, 2.0 channels, 48000 Hz
Субтитры: Нет
Семпл

MediaInfo

Общее
Полное имя : E:ТоррентSheyenne Warrior.1994.DVDRip.avi
Формат : AVI
Формат/Информация : Audio Video Interleave
Размер файла : 1,37 Гбайт
Продолжительность : 1 ч. 26 м.
Общий поток : 2267 Кбит/сек
Программа кодирования : VirtualDubModRus 1.5.10.2 (build 2542/release)
Библиотека кодирования : VirtualDubMod build 2542/release
Видео
Идентификатор : 0
Формат : MPEG-4 Visual
Параметр BVOP формата : 1
Параметр QPel формата : Нет
Параметр GMC формата : Без точки перехода
Параметр матрицы формата : Default (H.263)
Режим смешивания : Сжатый битовый поток
Идентификатор кодека : DX50
Идентификатор кодека/Подсказка : DivX 5
Продолжительность : 1 ч. 26 м.
Битрейт : 2068 Кбит/сек
Ширина : 640 пикселей
Высота : 480 пикселей
Соотношение сторон : 4:3
Частота кадров : 23,976 кадра/сек
Цветовое пространство : YUV
Субдискретизация насыщенности : 4:2:0
Битовая глубина : 8 бит
Тип развёртки : Прогрессивная
Метод сжатия : С потерями
Бит/(Пиксели*Кадры) : 0.281
Размер потока : 1,25 Гбайт (91%)
Библиотека кодирования : DivX 6.6.1
Аудио
Идентификатор : 1
Формат : AC-3
Формат/Информация : Audio Coding 3
Расширение режима : CM (complete main)
Параметр Endianness формата : Big
Идентификатор кодека : 2000
Продолжительность : 1 ч. 26 м.
Вид битрейта : Постоянный
Битрейт : 192 Кбит/сек
Каналы : 2 канала
Расположение каналов : Front: L R
Частота : 48,0 КГц
Частота кадров : 31,250 кадров/сек (1536 spf)
Метод сжатия : С потерями
Размер потока : 119 Мбайт (8%)
Выравнивание : Разделение по промежуткам
Продолжительность промежутка : 96 мс. (2,30 видеокадра)
Время предзагрузки промежутка : 96 мс.
Язык : Russian

Скриншоты

[Цитировать]



Показать сообщения:    

Текущее время: 25-Авг 10:52

Часовой пояс: UTC + 6


Вы не можете начинать темы
Вы не можете отвечать на сообщения
Вы не можете редактировать свои сообщения
Вы не можете удалять свои сообщения
Вы не можете голосовать в опросах
Вы не можете прикреплять файлы к сообщениям
Вы не можете скачивать файлы

!ВНИМАНИЕ!
Сайт не предоставляет электронные версии произведений, а занимается лишь коллекционированием и каталогизацией ссылок, присылаемых и публикуемых на форуме нашими читателями. Если вы являетесь правообладателем какого-либо представленного материала и не желаете, чтобы ссылка на него находилась в нашем каталоге, свяжитесь с нами, и мы незамедлительно удалим ее. Файлы для обмена на трекере предоставлены пользователями сайта, и администрация не несет ответственности за их содержание. Просьба не заливать файлы, защищенные авторскими правами, а также файлы нелегального содержания!