[ Сегодня идет свободное скачивание без начисления Download ]


Статистика раздачи
Скачал: [ 4 ]
 
   
 
 
 
 
Золотая лихорадка / Yellow Rock (2011) HDRip Информация о фильме
Название: Золотая лихорадка
Оригинальное название: Yellow Rock
Год выхода: 2011
Жанр: Вестерн, приключения
Режиссёр: Ник Валлелонга / Nick Vallelonga
В ролях: Майкл Бин, Джеймс Руссо, Ленор Андриел, Майкл Спирс, Эдди Спирс, Питер Шерайко, Кристофер Бакус, Клэй Уилкокс, Брайан Глисон, Эми Дженнингс
О фильме: Плохие парни приезжают в Йеллоу Рок и нанимают хорошего, чтобы якобы спасти родственников в горах. На самом деле, спасают они золото, точнее, прут его на священных землях индейцев. Плохие умирают. Хорошие ранены. Мораль от индейцев — деньги нельзя есть...

Страна: США
Студия: Black Elk Mountan Prods LLC, Enlightenment Films, Vallelonga Productions
Продолжительность: 01:30:05
Перевод: Профессиональный (двухголосый, закадровый) - НТВ+ (Людмила Шувалова и Виталий Петров)
Файл
Формат: avi
Качество: HDRip (BDRip.720p)
Видео: XviD, 656х368, 23.976fps, 1014kbps
Аудио: MPEG Layer 3, 2ch, 48000Hz, 128kbps

MediaInfo

Общее
Полное имя : Zolotaa.Lihoradka.2011.P2.HDRip.700.CurHaJI.avi
Формат : AVI
Формат/Информация : Audio Video Interleave
Размер файла : 742 Мбайт
Продолжительность : 1 ч. 30 м.
Общий поток : 1152 Кбит/сек
Название фильма : Zolotaa.Lihoradka.2011.P2.HDRip.700.CurHaJI
Программа кодирования : VirtualDubMod 1.5.10.3 | www.virtualdub-fr.org || (build 2550/release)
Библиотека кодирования : VirtualDub build 35491/release
Видео
Идентификатор : 0
Формат : MPEG-4 Visual
Профиль формата : Advanced [email protected]
Параметр BVOP формата : 1
Параметр QPel формата : Нет
Параметр GMC формата : Без точки перехода
Параметр матрицы формата : Выборочная
Идентификатор кодека : XVID
Идентификатор кодека/Подсказка : XviD
Продолжительность : 1 ч. 30 м.
Битрейт : 1014 Кбит/сек
Ширина : 656 пикселей
Высота : 368 пикселей
Соотношение сторон : 16:9
Частота кадров : 23,976 (24000/1001) кадра/сек
Частота кадров в оригинале : 23,976 (23976/1000) кадра/сек
Цветовое пространство : YUV
Субдискретизация насыщенности : 4:2:0
Битовая глубина : 8 бит
Тип развёртки : Прогрессивная
Метод сжатия : С потерями
Бит/(Пиксели*Кадры) : 0.175
Размер потока : 654 Мбайт (88%)
Библиотека кодирования : XviD 73
Аудио
Идентификатор : 1
Формат : MPEG Audio
Версия формата : Version 1
Профиль формата : Layer 3
Идентификатор кодека : 55
Идентификатор кодека/Подсказка : MP3
Продолжительность : 1 ч. 30 м.
Вид битрейта : Постоянный
Битрейт : 128 Кбит/сек
Каналы : 2 канала
Частота : 48,0 КГц
Метод сжатия : С потерями
Размер потока : 82,5 Мбайт (11%)
Выравнивание : Соединение по промежуткам
Продолжительность промежутка : 42 мс. (1,00 видеокадр)
Время предзагрузки промежутка : 504 мс.
Библиотека кодирования : LAME3.99r
Настройки программы : -m s -V 4 -q 2 -lowpass 17 -b 128

Скриншоты

[Цитировать]

Вернитесь на раздачу пожалуйста.

[Цитировать]



Показать сообщения:    

Текущее время: 16-Авг 19:38

Часовой пояс: UTC + 6


Вы не можете начинать темы
Вы не можете отвечать на сообщения
Вы не можете редактировать свои сообщения
Вы не можете удалять свои сообщения
Вы не можете голосовать в опросах
Вы не можете прикреплять файлы к сообщениям
Вы не можете скачивать файлы

!ВНИМАНИЕ!
Сайт не предоставляет электронные версии произведений, а занимается лишь коллекционированием и каталогизацией ссылок, присылаемых и публикуемых на форуме нашими читателями. Если вы являетесь правообладателем какого-либо представленного материала и не желаете, чтобы ссылка на него находилась в нашем каталоге, свяжитесь с нами, и мы незамедлительно удалим ее. Файлы для обмена на трекере предоставлены пользователями сайта, и администрация не несет ответственности за их содержание. Просьба не заливать файлы, защищенные авторскими правами, а также файлы нелегального содержания!