[ Сегодня идет свободное скачивание без начисления Download ]


Статистика раздачи
Нет
 
   
 
 
 
 
Каратель
-
Год выпуска: 2017
Страна: США
Жанр: фантастика, боевик, триллер, драма, криминал, приключения
Продолжительность: 00:51:23
Перевод: Профессиональный многоголосый
Субтитры: русские (Forced),- Режиссер: Энди Годдард, Том Шенклэнд, Антонио Кампос- В ролях:
-Джон Бернтал, Эмбер Роуз Рева, Эбон Мосс-Бакрак, Бен Барнс, Джейми Рэй Ньюман, Коби Фрумер (Zach Lieberman), Пол Шульц, Майкл Натансон, Рипли Собо (Leo Lieberman), Даниэль Уэббер, Джейсон Р. Мур, Келли Баррет- Описание:
После того, как семья Фрэнка Касла была убита во время перестрелки нескольких банд Нью-Йорка, он решает отомстить и начинает охоту на преступников города. В преступном мире он становится известен как Каратель.-Мировая премьера: 6 ноября 2017
- Качество: WEB-DLRip-AVC by
Формат: MKV
Видео кодек: AVC
Аудио кодек: AC3
Видео: AVC, 1024x576 (16:9), 1472 kbps, 23,976 fps, 0,104 bpp
Аудио: русский / AC3 / 5.1 / 44 kHz / 384 kbps / || -

ОтчетМедиаИнфо

General
Unique ID : 194710027415613547708464530953208149554 (0x927BC987B91806C7B4F0A665D2953632)
Complete name : E:\The Punisher S01.2017.WEBRip-AVC\Marvel's.The.Punisher.s01e01.WEBRip-AVC.by.White Smoke.R.G.Generalfilm.NewStudio.mkv
Format : Matroska
Format version : Version 4 / Version 2
File size : 683 MiB
Duration : 51 min
Overall bit rate : 1 857 kb/s
Movie name : Marvel's.The.Punisher.s01e01.WEB-DLRip-AVC.by.White Smoke.R.G.Generalfilm.NewStudio.mkv
Encoded date : UTC 2017-11-20 11:36:38
Writing application : mkvmerge v6.8.0 ('Theme for Great Cities') 64bit built on Mar 2 2014 21:34:26
Writing library : libebml v1.3.0 + libmatroska v1.4.1
Video
ID : 1
Format : AVC
Format/Info : Advanced Video Codec
Format profile : [email protected]
Format settings, CABAC : Yes
Format settings, ReFrames : 12 frames
Codec ID : V_MPEG4/ISO/AVC
Duration : 51 min
Bit rate : 1 472 kb/s
Width : 1 024 pixels
Height : 576 pixels
Display aspect ratio : 16:9
Frame rate mode : Constant
Frame rate : 23.976 (24000/1001) FPS
Color space : YUV
Chroma subsampling : 4:2:0
Bit depth : 8 bits
Scan type : Progressive
Bits/(Pixel*Frame) : 0.104
Stream size : 528 MiB (77%)
Writing library : x264 core 148 r2638 7599210
Encoding settings : cabac=1 / ref=12 / deblock=1:-1:-2 / analyse=0x3:0x113 / me=umh / subme=11 / psy=1 / psy_rd=1.00:0.14 / mixed_ref=1 / me_range=32 / chroma_me=1 / trellis=2 / 8x8dct=1 / cqm=0 / deadzone=21,11 / fast_pskip=0 / chroma_qp_offset=-5 / threads=6 / lookahead_threads=1 / sliced_threads=0 / nr=0 / decimate=0 / interlaced=0 / bluray_compat=0 / constrained_intra=0 / bframes=10 / b_pyramid=2 / b_adapt=2 / b_bias=10 / direct=1 / weightb=0 / open_gop=0 / weightp=2 / keyint=240 / keyint_min=23 / scenecut=40 / intra_refresh=0 / rc_lookahead=40 / rc=2pass / mbtree=1 / bitrate=1472 / ratetol=1.0 / qcomp=0.70 / qpmin=0 / qpmax=69 / qpstep=4 / cplxblur=20.0 / qblur=0.5 / vbv_maxrate=50000 / vbv_bufsize=65500 / nal_hrd=none / filler=0 / ip_ratio=1.40 / aq=1:1.00
Default : Yes
Forced : No
Audio
ID : 2
Format : AC-3
Format/Info : Audio Coding 3
Mode extension : CM (complete main)
Format settings, Endianness : Big
Codec ID : A_AC3
Duration : 51 min
Bit rate mode : Constant
Bit rate : 384 kb/s
Channel(s) : 6 channels
Channel positions : Front: L C R, Side: L R, LFE
Sampling rate : 44.1 kHz
Frame rate : 28.711 FPS (1536 spf)
Compression mode : Lossy
Stream size : 141 MiB (21%)
Title : NewStudio | Wanterlude
Language : Russian
Default : Yes
Forced : No
Text
ID : 3
Format : ASS
Codec ID : S_TEXT/ASS
Codec ID/Info : Advanced Sub Station Alpha
Compression mode : Lossless
Title : Forced
Language : Russian
Default : Yes
Forced : No

Скриншоты

Раздача ведётся путём добавления новых серий

Внимание! Раздача ведётся путём добавления новых серий; при каждом добавлении создаётся новый торрент.
Чтобы начать докачку новой серии, пользователям необходимо сделать следующее:
1. Остановить скачивание;
2. Удалить старый торрент у себя из клиента (старые серии удалять не надо);
3. Скачать новый торрент и запустить его у себя в клиенте вместо старого, при этом указать клиенту путь в старую папку куда и должно происходить скачивание новых серий. Ваш клиент при этом должен произвести хеширование (проверку) старой папки и будет докачивать только те серии, которых у вас ещё нет. Старые серии при этом не удаляются, а продолжают раздаваться! Eсли вы уже удалили старые серии, то предотвратить повторную закачку старых серий можно, отжав галочку в соответствующих местах при запуске нового торрента.

[Цитировать]



Показать сообщения:    

Текущее время: 25-Авг 10:10

Часовой пояс: UTC + 6


Вы не можете начинать темы
Вы не можете отвечать на сообщения
Вы не можете редактировать свои сообщения
Вы не можете удалять свои сообщения
Вы не можете голосовать в опросах
Вы не можете прикреплять файлы к сообщениям
Вы не можете скачивать файлы

!ВНИМАНИЕ!
Сайт не предоставляет электронные версии произведений, а занимается лишь коллекционированием и каталогизацией ссылок, присылаемых и публикуемых на форуме нашими читателями. Если вы являетесь правообладателем какого-либо представленного материала и не желаете, чтобы ссылка на него находилась в нашем каталоге, свяжитесь с нами, и мы незамедлительно удалим ее. Файлы для обмена на трекере предоставлены пользователями сайта, и администрация не несет ответственности за их содержание. Просьба не заливать файлы, защищенные авторскими правами, а также файлы нелегального содержания!