[ Сегодня идет свободное скачивание без начисления Download ]


Статистика раздачи
Буду качать: [ 1 ]
Качаю: [ 1 ]
Скачал: [ 1 ]
 
   
 
 
 
 
Готэм / Gotham [04x01-11 из 22] (2017) | WEB-DL 720p Название: Готэм
Оригинальное название: Gotham
Год выпуска: 2017
Жанр: Триллер, драма, криминал
Выпущено: США
Режиссер: Дэнни Кэннон
В ролях: Бен МакКензи, Шон Пертуи, Робин Тейлор, Забрина Гевара, Эрин Ричардс, Донал Лог, Джада Пинкетт Смит, Дэвид Мазоуз, Камрен Бикондова, Кори Майкл Смит, Джада Пинкетт Смит, Дрю Пауэлл, Морена Баккарин, Джон Доумен, Виктория Картагена, Эндрю Стюарт-Джонс, Крис Чок, Джеймс Фрейн, Джессика Лукас, Николас Д’Агосто
Описание:
Детектив Джеймс Гордон и его напарник Харви Баллок приступили к работе в департаменте полиции Готэма. Они расследуют убийства. Последнее дело очень сложное, поэтому к мужчинам примыкает Сара Эссен, которая поможет вести дело по Томасу и Марте Уэйн. Гордон за время расследования успевает познакомиться с сыном убитых Брюсом Уэйном, который после гибели родителей находится под опекой дворецкого Альфреда, который работает при семье Уэйн. Но не только смерть Томаса и Марты является главным делом Гордона. Ему приходится решать проблемы с местным главарем банды — женщиной по имени Фиш Муни, а также с очень опасными злодеями, населяющими Готэм. Среди проходимцев затесались Освальд Кобблпот и Селина Кайл. В итоге, Гордон фокусируется на дружбе с молодым Брюсом, чтобы в будущем сделать из маленького мальчика Тёмного рыцаря — защитника Готэма.

Качество: WEB-DL 720p (чистый видеоряд)
Видео: 1280x720, 23.976 fps, MPEG-4 AVC ~3000 kbps
Аудио #1: Русский (AC3, 2 ch, 384 Кбит/с)
Аудио #2: Английский (EAC3, 6 ch, 640 Кбит/с)
Перевод: Профессиональный (многоголосый закадровый) (LostFilm)
Субтитры: Английские
Продолжительность: 11 х ~00:45:00
Реклама: Полностью отсутствует

MediaInfo:

Общее
Уникальный идентификатор : 241985657559646183755509720320946548311 (0xB60CBE0DF7D352848858B292571D2E57)
Полное имя : D:\Gotham (Season 04) WEBDL 720p GeneralFilm\Gotham.S04E01.WEBDL.720p.GeneralFilm.mkv
Формат : Matroska
Версия формата : Version 4 / Version 2
Размер файла : 1,05 Гбайт
Продолжительность : 42 м. 59 с.
Режим общего битрейта : Переменный
Общий поток : 3496 Кбит/сек
Дата кодирования : UTC 2017-09-23 22:17:10
Программа кодирования : mkvmerge v7.7.0 ('Six Voices') 64bit built on Feb 28 2015 23:39:33
Библиотека кодирования : libebml v1.3.1 + libmatroska v1.4.2
Видео
Идентификатор : 1
Формат : AVC
Формат/Информация : Advanced Video Codec
Профиль формата : [email protected]
Настройки формата : CABAC / 5 Ref Frames
Параметр CABAC формата : Да
Параметр RefFrames формата : 5 кадров
Идентификатор кодека : V_MPEG4/ISO/AVC
Продолжительность : 42 м. 59 с.
Вид битрейта : Переменный
Битрейт : 2403 Кбит/сек
Максимальный битрейт : 4500 Кбит/сек
Ширина : 1280 пикселей
Высота : 720 пикселей
Соотношение сторон : 16:9
Режим частоты кадров : Постоянный
Частота кадров : 23,976 (24000/1001) кадра/сек
Цветовое пространство : YUV
Субдискретизация насыщенности : 4:2:0
Битовая глубина : 8 бит
Тип развёртки : Прогрессивная
Бит/(Пиксели*Кадры) : 0.109
Размер потока : 739 Мбайт (69%)
Default : Да
Forced : Нет
Цветовой диапазон : Limited
Основные цвета : BT.709
Характеристики трансфера : BT.709
Коэффициенты матрицы : BT.709
Аудио #1
Идентификатор : 2
Формат : AC-3
Формат/Информация : Audio Coding 3
Параметр Endianness формата : Big
Идентификатор кодека : A_AC3
Продолжительность : 42 м. 59 с.
Вид битрейта : Постоянный
Битрейт : 384 Кбит/сек
Каналы : 2 канала
Расположение каналов : Front: L R
Частота : 48,0 КГц
Частота кадров : 31,250 кадров/сек (1536 SPF)
Битовая глубина : 16 бит
Метод сжатия : С потерями
Размер потока : 118 Мбайт (11%)
Язык : Russian
ServiceKind/String : Complete Main
Default : Да
Forced : Нет
Аудио #2
Идентификатор : 3
Формат : E-AC-3
Формат/Информация : Enhanced Audio Coding 3
Параметр Endianness формата : Big
Идентификатор кодека : A_EAC3
Продолжительность : 42 м. 59 с.
Вид битрейта : Постоянный
Битрейт : 640 Кбит/сек
Каналы : 6 каналов
Расположение каналов : Front: L C R, Side: L R, LFE
Частота : 48,0 КГц
Частота кадров : 187,500 кадров/сек (256 SPF)
Метод сжатия : С потерями
Размер потока : 197 Мбайт (18%)
Язык : English
ServiceKind/String : Complete Main
Default : Нет
Forced : Нет
Текст
Идентификатор : 4
Формат : UTF-8
Идентификатор кодека : S_TEXT/UTF8
Идентификатор кодека/Информация : UTF-8 Plain Text
Язык : English
Default : Нет
Forced : Нет

Скриншоты

[Цитировать]



Показать сообщения:    

Текущее время: 25-Авг 10:11

Часовой пояс: UTC + 6


Вы не можете начинать темы
Вы не можете отвечать на сообщения
Вы не можете редактировать свои сообщения
Вы не можете удалять свои сообщения
Вы не можете голосовать в опросах
Вы не можете прикреплять файлы к сообщениям
Вы не можете скачивать файлы

!ВНИМАНИЕ!
Сайт не предоставляет электронные версии произведений, а занимается лишь коллекционированием и каталогизацией ссылок, присылаемых и публикуемых на форуме нашими читателями. Если вы являетесь правообладателем какого-либо представленного материала и не желаете, чтобы ссылка на него находилась в нашем каталоге, свяжитесь с нами, и мы незамедлительно удалим ее. Файлы для обмена на трекере предоставлены пользователями сайта, и администрация не несет ответственности за их содержание. Просьба не заливать файлы, защищенные авторскими правами, а также файлы нелегального содержания!